【7176】瑞鸣音乐《小曲儿》头版限量编号24K金碟[低速原抓WAV+CUE]

回复 已回复1 星标
更多

【7176】瑞鸣音乐《小曲儿》头版限量编号24K金碟[低速原抓WAV+CUE]

01. 東北二人轉:大西廂
板胡嬌俏小紅娘,嗩吶多情張君瑞,古箏端莊似鶯鶯。
02. 京韻大鼓:劍閣聞鈴
鼓威挾風,板急如雨,琴簫互訴出脈脈不得語的痛徹心扉。
03. 四川清音:布谷鳥兒咕咕叫
竹笛如鳥兒,跳躍於弦樂的樹蔭,馬骨胡回環應答。
04. 京東大鼓:送女上學
中胡老成迂回,竹笛嫩綠沁水,趣致問答令人莞爾。
05. 評彈:情探
弦意繚繞,箏影泫然,平平仄仄曲徑通幽。
06. 西河大鼓:玲瓏塔
鑔輕打鑼巧擊,彈撥樂聳眉動眼,二胡竹笛一氣呵成。
07. 山東琴書:老少換
瓷碟叮鈴鴛鴦板翻飛,嗩吶十足神氣,板胡更三分世故。
08. 廣東粵曲:分飛燕
高胡抑揚,洞簫幽訴,箏意脈脈盡訴,弦樂如夜深沈。
09. 天津時調:翻江倒海
梆子和鼓不疾不徐,京胡入神描繪民俗之趣。
10. 河南墜子:穆桂英指路

馬鈴搖碎山色,梆子馬蹄飛踏,板胡和嗩吶相互逗問。



Exact Audio Copy V1.1 from 23. June 2015
EAC 抓取日志文件从7. 七月 2021, 15:40
瑞鸣唱片 / 小曲儿24K
使用驱动器  :TEAC    CD-W54E  Adapter: 1  ID: 0
读取模式      : 可靠Secure
使用精确流     : 是
清空音频缓存    : 是
使用 C2 指示器 : 否
读取偏移校正:               : 685
读取 Lead-In 和 Lead-Out : 否
用静音填充抓取中丢失偏移的采样       : 是
去除首尾静音块               : 否
在CRC 计算中使用了空样本       : 是
已用接口                  : Win NT 及 2000 本地 Win32 接口
所用输出模式: : 内部 WAV 函数
样本格式    : 44.100 Hz; 16 Bit; 立体声
已抓取 CD 的 TOC
音轨 |    起始    |    长度    |  起始扇区  |  结束扇区  
--------------------------------------------
1 |  0:00.00 |  4:35.57 |      0 |  20681 
2 |  4:35.57 |  5:24.43 |  20682 |  45024 
3 | 10:00.25 |  3:27.57 |  45025 |  60606 
4 | 13:28.07 |  3:31.50 |  60607 |  76481 
5 | 16:59.57 |  4:02.60 |  76482 |  94691 
6 | 21:02.42 |  4:59.40 |  94692 | 117156 
7 | 26:02.07 |  4:40.33 | 117157 | 138189 
8 | 30:42.40 |  3:59.72 | 138190 | 156186 
9 | 34:42.37 |  4:57.15 | 156187 | 178476 
10 | 39:39.52 |  3:56.55 | 178477 | 196231 
范围状态及错误
已选择范围
文件名 D:\瑞鸣唱片 - 小曲儿24K.wav
峰值电平 94.4 %
抓取速度 2.5 X
范围质量 100.0 %
复制 CRC 66F27BCA
复制成功
没有错误发生

状态报告结尾



|——【7176】瑞鸣音乐《小曲儿》头版限量编号24K金碟[低速原抓WAV+CUE]
| |-Artwork
| | |-封面2.jpg
| | |-封面1.jpg
| | |-封背2.jpg
| | |-封背1.jpg
| | |-COVER.jpg
| | |-BACK.jpg
| | |-19.jpg
| | |-18.jpg
| | |-17.jpg
| | |-16.jpg
| | |-15.jpg
| | |-14.jpg
| | |-13.jpg
| | |-12.jpg
| | |-11.jpg
| | |-10.jpg
| | |-09.jpg
| | |-08.jpg
| | |-07.jpg
| | |-06.jpg
| | |-05.jpg
| | |-04.jpg
| | |-03.jpg
| | |-02.jpg
| | |-01.jpg
| | |-CD内.jpg
| | |-CD.jpg
| |-瑞鸣唱片 - 小曲儿24K.wav
| |-瑞鸣唱片 - 小曲儿24K.log
| |-瑞鸣唱片 - 小曲儿24K.cue
| |-专辑曲目.txt

谢谢你的分享很喜欢啊

新窗口打开 关闭