【7145】群星 - 香港高级视听展 原音精选 UPM AGCD 2017 WAV+CUE

回复 星标
更多

【7145】群星 - 香港高级视听展 原音精选 UPM AGCD 2017 WAV+CUE

专辑名称: 2017香港高级视听展《原音精选》UPM CD
专辑艺人: 群星
出版发行: 香港高级视听展(非卖品)
发行时间: 2017年08月
资源格式: WAV
专辑简介:
本届【香港高级视听展】已是第十五届,我们怀著兴奋的心情来迎接新气象,今年参展的代理商仍是来自世界各地,他们除了来自欧、美之外,还包括韩国、内地及台湾…等地方,他们将会带来多类型新产品,从Hi End两声道器材以至个人音响产品,它们不但是当今最尖端的顶级器材,部份型号更是首次公开示范,除此之外,多间唱片公司更趁著年度盛事举行期间推出全新专辑,入场观展的乐迷定能购得心头好。今届的展览场地共分为S2及S4全层会议厅、Hall 3八万平方呎展区,过百间参展商及数以仟计音响品牌,成就出音乐与音响并重的缤纷嘉年华会,让每位观展人士都能获得愉快的感受。
音乐是【香港高级视听展】其中一项重要元素,在今届展会中大家将可免费欣赏到多场精彩的现场表演,在会议展览中心的演讲厅2,御品音响特别安排了一套总值五百万的重播器材,让乐迷可享受到逼真传神的Live效果,相比于舞台使用的专业喇叭,视听展提供了 Hi End级重播效果,对广大乐迷来说这是欣赏靓声的好机会,今年的表演嘉宾阵容相当鼎盛,包括锺镇涛、叶振棠、夏韶声、苏永康、露云娜、石咏莉、陈洁丽、陆宝、歌莉雅、陈果……醉人歌声由超级音响演绎,若错过的话便要等待明年,乐迷记紧把握机会来临参与了 !
作为主办机构,[音响技术]不仅为乐迷和发烧友带来高质素的展览会,在推动实体唱片方面更不遗馀力,每年均会精心制作出【原音精选】双层 SACD碟,以送赠予【香港高级视听展】的观展人士,历年十三款专辑无论是选曲以至声效均获得广泛认同,发烧友更视为参考及示范的音乐软件,今年将继续为大家送上优质美乐,与此同时香港高级视听展15週年纪念黑胶唱片亦在会场裡发售,这张专辑所拣选的歌曲绝对符合大众乐迷的口味,在制作方面交由雨果唱片的负责人易有伍先生进行母带处理,并且使用模拟开捲带作为母盘,最后送往德国著名压碟厂生产,确保声效臻达现今顶级水平。
每年八月,原音精选都会有很大的迴响,是主观愿望?或是客观因素?我猪宾不得而知,反正八月是我最忙的月份,连听歌也无閒,何来有意欲去理其他事呢?
AV Show 完了一星期后,终于有时间欣赏此碟,为什麽我用[欣赏]二字?原因我只希望本人与大家分享听感,如果有别的层面讨论,还是另闢新帖吧!
环顾本年曲目,已经做到越来越大众化,基本上发烧友就算未听过全部,一般来说认识都应该有一半以上。我替SACD 做了基本消磁后,随即安坐皇帝位,音量我调到九点半已经够声,对于一些电平极低的碟我要推到十二点,本碟仍处于正常合理水平。
加入大牌广东歌手已经是近年指定动作,始终为香港人的音展,此举当然更具代表性吧![陈百强]的[今宵多珍重]我已经熟到透,我细路时代老妈子基本上一週播足六天,唔熟就奇,Danny 略带轻佻的唱法没任何改变,色士风也清脆明淨,最特别是保留了kick drum的大动态,完全无数码味,对于原版我认为有甚高的还原度。
滚石唱片一向是靓声保证,今次加入[辛晓琪]的[味道]更是突破,需然我未层拥有此曲CD,但我隐隐感受到人声水份丰盈,细节丰富,音场向左右推开,是否SACD 层的Bonus?待我有空再转去CD 层 AB 比较一下。
接下来是几首古典曲目,以我最熟悉一定是[鬼爪]吧!与我听开CD版的最大分别是,本版本音场更为工整,CD 版本音场有些少过于居中,而本碟的音场深度和阔度也有所增加,使乐器分隔度更加理想;SACD 讯息量较多应该人所共知,我曾经听过一些怀疑后期加工的碟片,声音过于人工化,刻意去表达细节,使整体本末倒置,效果奇差;今年原音精选几首古典音乐,声音自然不做作,密度高,讯息量非常充足,以上要点不单提升了音乐流畅度,也提升了音乐感,你听到[阿卡度]行云流水的演绎,应该有另一番领略和体会。
记得第一次与[陆宝]见面,就是在Hiendy 六週年晚宴里,宝哥充当表演嘉宾,他单单用大会提供的咪说话,声底已经非常靓,我已经认定他是一个很会用咪之人,一开声唱歌更加不得了,感情丰富、声音雄浑而有穿透力。今次翻唱[红颜白髮],依然是招牌靓声,我渐渐发现今年曲目每一首都隐含一个试音项目,本曲是人声,[陆宝]sell靓人声肯定是当之无愧。
其实每张原音精选以我所记得都有至少一首爆棚曲目,第11首见到RR标志,应该无走鸡吧!我特意将音量再推大些少到十点位,著名的[明尼苏达管絃乐团]演奏的[西班牙狂想曲],入选得TAS 榜一定斤両十足,闭上眼听不难感受到是一个大编制乐团,乐器声非常[正确],像真度奇高,尤其定音鼓有如力发千钧,听感不下于演奏厅之现场。
最后要说说[小刚] 的 [风声鹤唳],上次家访[大草] 用达七位数字的Audio Note CD 盘真係听到毛管戙,今次听自己的SACD 盘,虽然感情演奏差了不少,但是嘴形立体感、线条感、定位,也处于极高水平,纵使没有天价的器材,也能透过此碟感受Hifi 原素,享受高水准的音乐。
全碟一小时四分二十一秒很快过去,正想拿起遥控器退出碟片时,方才发现遥控器一直在抽屉裹,已经很久没有一气呵成地听完一张碟,全碟基本上首首好歌,每一首乐曲完结时也教人期待著下一曲的前奏响起。一直以来,2004年的原音精选也被发烧友评为最有收藏价值一张,而每年问到[草哥]那一年的原音精选最靓声?答案仍会是那一个 …… 个人认为,2017 的原音精选足以登上曆年之冠。
一碟好菜,都要有好的材料,好的厨子才能成事。原音精选有[大草]挑选最好的材料,有一流混音师作后期制作,镁光灯照射在幕前之中,也请大家不要忘记幕后人员的劳苦功高,多谢您[黎承昌]先生,为我们带来十四首美妙的音乐,一个更佳的调音标准,也使人期待明年再一次为大家带来惊喜。
专辑曲目:
01. 今宵多珍重 — 陈百强
02. 味道 — 辛晓琪
03. Swan Lake Scene (Act II-No10) — André Previn / London Symphony Orchestra
04. 最爱是谁 — 卢冠廷
05. La Campanella — Salvatore Accardo (Violin) Charles Dutoit / London Philharmonic Orchestra
06. Good Vibrations — The King's Singers
07. Vittorio Monti / Csárdás — Sinfonia Lahti Cello & Bass Ensemble
08. 红颜白髮 — 陆宝
09. Vaughan Williams / Fantasia on 'Greensleeves' — Sir John Barbirolli / Sinfonia of London
10. I'll Never Fall In Love Again — Nicki Parrott
11. Chabrier / Espa?a Rhapsody — Eiji Oue / Minnesota Orchestra
12. 风声鹤唳 — 小刚
13. Midnight in Moscow — Aida Garifullina

14. 夺丰收 — 李民雄(击乐领奏) 关迺忠 / 高雄市立国乐团



Exact Audio Copy V1.3 from 2. September 2016

EAC 抓取日志文件从21. 十月 2017, 2:58

群星 / 2017 香港音响展 原音精选
使用驱动器  :YAMAHA  CRW-F1E  Adapter: 1  ID: 0
读取模式      : 可靠Secure
使用精确流     : 是
清空音频缓存    : 是
使用 C2 指示器 : 否
读取偏移校正:               : 733
读取 Lead-In 和 Lead-Out : 否
用静音填充抓取中丢失偏移的采样       : 是
去除首尾静音块               : 否
在CRC 计算中使用了空样本       : 是
已用接口                  : Win NT 及 2000 本地 Win32 接口
所用输出模式: : 内部 WAV 函数
样本格式    : 44.100 Hz; 16 Bit; 立体声
已抓取 CD 的 TOC
音轨 |    起始    |    长度    |  起始扇区  |  结束扇区  
--------------------------------------------
1 |  0:00.00 |  3:53.26 |      0 |  17500 
2 |  3:53.26 |  3:58.32 |  17501 |  35382 
3 |  7:51.58 |  2:50.59 |  35383 |  48191 
4 | 10:42.42 |  4:44.31 |  48192 |  69522 
5 | 15:26.73 |  8:59.04 |  69523 | 109951 
6 | 24:26.02 |  3:53.63 | 109952 | 127489 
7 | 28:19.65 |  6:01.57 | 127490 | 154621 
8 | 34:21.47 |  4:31.60 | 154622 | 175006 
9 | 38:53.32 |  4:42.48 | 175007 | 196204 
10 | 43:36.05 |  3:52.19 | 196205 | 213623 
11 | 47:28.24 |  6:34.14 | 213624 | 243187 
12 | 54:02.38 |  5:08.06 | 243188 | 266293 
13 | 59:10.44 |  2:11.63 | 266294 | 276181 
14 | 61:22.32 |  3:16.05 | 276182 | 290886 
范围状态及错误
已选择范围
文件名 C:\Users\Administrator\Desktop\群星 - 2017 香港音响展 原音精选.wav
峰值电平 100.0 %
抓取速度 5.0 X
范围质量 100.0 %
复制 CRC ABBF2AF6
复制成功
没有错误发生
AccurateRip 摘要
音轨  1  精确地校准抓取  13)  [70FDF2BB]  (AR v2)
音轨  2  精确地校准抓取  13)  [1B5E87D9]  (AR v2)
音轨  3  精确地校准抓取  13)  [B71D2585]  (AR v2)
音轨  4  精确地校准抓取  13)  [9D12F99B]  (AR v2)
音轨  5  精确地校准抓取  13)  [3F997F06]  (AR v2)
音轨  6  精确地校准抓取  13)  [43892BE6]  (AR v2)
音轨  7  精确地校准抓取  13)  [CF1DF6C8]  (AR v2)
音轨  8  精确地校准抓取  13)  [6002CE04]  (AR v2)
音轨  9  精确地校准抓取  13)  [83E2B1C9]  (AR v2)
音轨 10  精确地校准抓取  13)  [1287CB02]  (AR v2)
音轨 11  精确地校准抓取  13)  [7D035292]  (AR v2)
音轨 12  精确地校准抓取  13)  [5954C68D]  (AR v2)
音轨 13  精确地校准抓取  13)  [8C01C5FA]  (AR v2)
音轨 14  精确地校准抓取  13)  [5BEB6DE2]  (AR v2)
所有音轨精确校准抓取

状态报告结尾



|——【7145】群星 - 香港高级视听展 原音精选 UPM AGCD 2017 WAV+CUE
| |-群星 - 2017 香港音响展 原音精选.wav
| |-UPMCD_Front.jpg
| |-UPMCD_Disc.jpg
| |-UPMCD_Back.jpg
| |-scan 6.jpg
| |-scan 5.jpg
| |-scan 4.jpg
| |-scan 3.jpg
| |-scan 2.jpg
| |-scan 1.jpg
| |-Folder.jpg
| |-群星 - 2017 香港音响展 原音精选.log
| |-群星 - 2017 香港音响展 原音精选.cue
| |-info.txt
| |-cover.jpg
新窗口打开 关闭