【7077】柏菲 - 二十周年精选 24K金碟 限量编号首版 2021 [原抓WAV+CUE]

回复 星标
更多

【7077】柏菲 - 二十周年精选  24K金碟 限量编号首版 2021 [原抓WAV+CUE]

专辑简介:
柏菲 -《二十周年精选(头版限量编号 24K 金碟)》。柏菲出的 20 周年精选就不用多介绍了,24K 金碟,识货的来收藏。
专辑曲目:
01.山茶花 赵鹏
02.父亲的草原母亲的河 腾格尔
03.雪也白不过她 谭晶
04.梅花三弄 古璇
05.水长流(玉河浸女)古璇
06.一个*** 伽菲珈而
07.再回首 蓝岚
08.渔舟唱晚 梁玉嵘
09.纸船 李烁
10.三套车 赵鹏
11.斯卡布罗市集 胭花四乐
12.知音 姜苏

13.弹起我心爱的土琵琶 武警合唱团



Exact Audio Copy V1.1 from 23. June 2015
EAC 抓取日志文件从9. 六月 2021, 12:28
柏菲 / 二十周年精选24K
使用驱动器  :TEAC    CD-W54E  Adapter: 1  ID: 0
读取模式      : 可靠Secure
使用精确流     : 是
清空音频缓存    : 是
使用 C2 指示器 : 否
读取偏移校正:               : 685
读取 Lead-In 和 Lead-Out : 否
用静音填充抓取中丢失偏移的采样       : 是
去除首尾静音块               : 否
在CRC 计算中使用了空样本       : 是
已用接口                  : Win NT 及 2000 本地 Win32 接口
所用输出模式: : 内部 WAV 函数
样本格式    : 44.100 Hz; 16 Bit; 立体声
已抓取 CD 的 TOC
音轨 |    起始    |    长度    |  起始扇区  |  结束扇区  
--------------------------------------------
1 |  0:00.00 |  4:17.59 |      0 |  19333 
2 |  4:17.59 |  6:27.71 |  19334 |  48429 
3 | 10:45.55 |  5:34.18 |  48430 |  73497 
4 | 16:19.73 |  4:56.56 |  73498 |  95753 
5 | 21:16.54 |  3:54.06 |  95754 | 113309 
6 | 25:10.60 |  4:57.54 | 113310 | 135638 
7 | 30:08.39 |  4:27.16 | 135639 | 155679 
8 | 34:35.55 |  5:14.71 | 155680 | 179300 
9 | 39:50.51 |  4:48.64 | 179301 | 200964 
10 | 44:39.40 |  4:21.66 | 200965 | 220605 
11 | 49:01.31 |  5:25.53 | 220606 | 245033 
12 | 54:27.09 |  3:45.53 | 245034 | 261961 
13 | 58:12.62 |  6:21.65 | 261962 | 290601 
范围状态及错误
已选择范围
文件名 D\柏菲 - 二十周年精选24K.wav
峰值电平 99.5 %
抓取速度 2.5 X
范围质量 100.0 %
复制 CRC 19180E40
复制成功
没有错误发生

状态报告结尾



|——【7077】柏菲 - 二十周年精选  24K金碟 限量编号首版 2021 [原抓WAV+CUE]
| |-Artwork
| | |-1 (1).jpg
| | |-1 (2).jpg
| | |-1 (3).jpg
| | |-1 (4).jpg
| | |-1 (5).jpg
| | |-1 (6).jpg
| | |-1 (7).jpg
| | |-1 (8).jpg
| | |-1 (9).jpg
| | |-1 (10).jpg
| | |-1 (11).jpg
| | |-1 (12).jpg
| | |-1 (13).jpg
| | |-1 (14).jpg
| | |-1 (15).jpg
| | |-1 (16).jpg
| | |-1 (17).jpg
| | |-1 (18).jpg
| | |-1 (19).jpg
| |-柏菲 - 二十周年精选24K.cue
| |-柏菲 - 二十周年精选24K.log
| |-柏菲 - 二十周年精选24K.wav
| |-Folder.jpg
| |-专辑简介.txt
新窗口打开 关闭