【7051】伽菲珈而 - 响往 Vol.1 24K金碟 限量编号首版2021[原抓WAV +CUE]

回复 星标
更多
分类置顶

【7051】伽菲珈而 - 响往 Vol.1  24K金碟 限量编号首版2021[原抓WAV +CUE]

曲目:
01.一个*** A True Story
02.花儿为什么这样红 Why The Flowers so Red
03.绣荷包 Embroidering Pouch
04.响往 Longing
05.弦子舞曲 Xianzi Dancing
06.牧歌 Eclogue
07.耶利亚女郎 Lady Yeliya
08.弯弯的月亮 Crescent Moon
09.在那遥远的地方 Somewhere Far Away
10.忘不了 Unforgettable
11.赞歌 Paean
12.葬心 Bury my Heart

13.化蝶 Transformation Into Buttefly



Exact Audio Copy V1.1 from 23. June 2015
EAC 抓取日志文件从6. 六月 2021, 14:25
伽菲珈而 / 响往24K
使用驱动器  :TEAC    CD-W54E  Adapter: 1  ID: 0
读取模式      : 可靠Secure
使用精确流     : 是
清空音频缓存    : 是
使用 C2 指示器 : 否
读取偏移校正:               : 685
读取 Lead-In 和 Lead-Out : 否
用静音填充抓取中丢失偏移的采样       : 是
去除首尾静音块               : 否
在CRC 计算中使用了空样本       : 是
已用接口                  : Win NT 及 2000 本地 Win32 接口
所用输出模式: : 内部 WAV 函数
样本格式    : 44.100 Hz; 16 Bit; 立体声
已抓取 CD 的 TOC
音轨 |    起始    |    长度    |  起始扇区  |  结束扇区  
--------------------------------------------
1 |  0:00.00 |  4:57.54 |      0 |  22328 
2 |  4:57.54 |  4:38.46 |  22329 |  43224 
3 |  9:36.25 |  3:47.05 |  43225 |  60254 
4 | 13:23.30 |  4:37.69 |  60255 |  81098 
5 | 18:01.24 |  3:54.03 |  81099 |  98651 
6 | 21:55.27 |  4:18.10 |  98652 | 118011 
7 | 26:13.37 |  4:25.22 | 118012 | 137908 
8 | 30:38.59 |  5:26.04 | 137909 | 162362 
9 | 36:04.63 |  3:39.42 | 162363 | 178829 
10 | 39:44.30 |  5:34.70 | 178830 | 203949 
11 | 45:19.25 |  5:11.28 | 203950 | 227302 
12 | 50:30.53 |  5:27.15 | 227303 | 251842 
13 | 55:57.68 |  4:23.23 | 251843 | 271590 
范围状态及错误
已选择范围
文件名 D:\伽菲珈而 - 响往24K.wav
峰值电平 94.4 %
抓取速度 2.5 X
范围质量 100.0 %
复制 CRC C5D9D130
复制成功
没有错误发生

状态报告结尾


|——【7051】伽菲珈而 - 响往 Vol.1  24K 金碟限量编号首版2021[原抓WAV +CUE]
| |-Artwork
| | |-封面 1.jpg
| | |-封背 2.jpg
| | |-封背 1.jpg
| | |-COVER.jpg
| | |-BACK.jpg
| | |-11.jpg
| | |-10.jpg
| | |-09.jpg
| | |-08.jpg
| | |-07.jpg
| | |-06.jpg
| | |-05.jpg
| | |-04.jpg
| | |-03.jpg
| | |-02.jpg
| | |-01.jpg
| | |-封面 2.jpg
| | |-CD.jpg
| | |-CD 内.jpg
| |-伽菲珈而 - 响往24K.wav
| |-伽菲珈而 - 响往24K.cue
| |-伽菲珈而 - 响往24K.log
| |-专辑简介.txt
新窗口打开 关闭