【6987】王闻 -绝对收藏 24K金碟限量首版 2020 原抓WAV+CUE

回复 星标
更多

【6987】王闻 -绝对收藏 24K金碟限量首版 2020 原抓WAV+CUE

曲目:

01 失业生
02 再见杨柳
03 归航
04 月光光
05 祈祷
06 船歌
07 你的眼神
08 月满窗
09 双星情歌
10 思乡愁
11 春梦
12 夜来香
13 相识恨太迟

14 凭着爱


Exact Audio Copy V1.6 from 23. October 2020
EAC 抓取日志文件从2. 四月 2021, 21:14
王闻 / 绝对收藏 24K
使用驱动器  :        DVD RW  Adapter: 1  ID: 0
读取模式      : 可靠Secure
使用精确流     : 是
清空音频缓存    : 是
使用 C2 指示器 : 否
读取偏移校正:               : 6
读取 Lead-In 和 Lead-Out : 否
用静音填充抓取中丢失偏移的采样       : 是
去除首尾静音块               : 否
在CRC 计算中使用了空样本       : 是
已用接口                  : Win NT 及 2000 本地 Win32 接口
所用输出模式: : 内部 WAV 函数
样本格式    : 44.100 Hz; 64 Bit; 立体声
已抓取 CD 的 TOC
音轨 |    起始    |    长度    |  起始扇区  |  结束扇区  
--------------------------------------------
1 |  0:00.00 |  4:19.56 |      0 |  19480 
2 |  4:19.56 |  3:49.06 |  19481 |  36661 
3 |  8:08.62 |  5:33.74 |  36662 |  61710 
4 | 13:42.61 |  5:30.62 |  61711 |  86522 
5 | 19:13.48 |  4:09.12 |  86523 | 105209 
6 | 23:22.60 |  4:22.39 | 105210 | 124898 
7 | 27:45.24 |  4:36.34 | 124899 | 145632 
8 | 32:21.58 |  3:26.54 | 145633 | 161136 
9 | 35:48.37 |  4:36.29 | 161137 | 181865 
10 | 40:24.66 |  5:01.34 | 181866 | 204474 
11 | 45:26.25 |  4:07.53 | 204475 | 223052 
12 | 49:34.03 |  3:33.62 | 223053 | 239089 
13 | 53:07.65 |  3:52.04 | 239090 | 256493 
14 | 56:59.69 |  3:44.71 | 256494 | 273364 
范围状态及错误
已选择范围
文件名 D:\王闻 - 绝对收藏 24K.wav
峰值电平 100.0 %
抓取速度 2.9 X
范围质量 100.0 %
复制 CRC AF020378
复制成功
没有错误发生
状态报告结尾
新窗口打开 关闭