【6978】钟明秋 - 水中花 HQⅡ HQCDⅡ 限量编号首版 2021[原抓WAV+CUE]

回复 已回复2 星标
更多
分类置顶

【6978】钟明秋 - 水中花 HQⅡ  HQCDⅡ 限量编号首版 2021[原抓WAV+CUE]

曲目:

01.眼泪为你流
02.似是故人来
03.水中花
04.归来吧
05.情系半生
06.沉默是金
07.夜夜念奴娇
08.零时十分
09.人生何处不相逢
10.一生何求
11.单车

12.讲不出再见



Exact Audio Copy V1.1 from 23. June 2015
EAC 抓取日志文件从29. 五月 2021, 15:04
钟明秋 / 水中花HQⅡ
使用驱动器  :TEAC    CD-W54E  Adapter: 1  ID: 0
读取模式      : 可靠Secure
使用精确流     : 是
清空音频缓存    : 是
使用 C2 指示器 : 否
读取偏移校正:               : 685
读取 Lead-In 和 Lead-Out : 否
用静音填充抓取中丢失偏移的采样       : 是
去除首尾静音块               : 否
在CRC 计算中使用了空样本       : 是
已用接口                  : Win NT 及 2000 本地 Win32 接口
所用输出模式: : 内部 WAV 函数
样本格式    : 44.100 Hz; 16 Bit; 立体声
已抓取 CD 的 TOC
音轨 |    起始    |    长度    |  起始扇区  |  结束扇区  
--------------------------------------------
1 |  0:00.00 |  3:55.04 |      0 |  17628 
2 |  3:55.04 |  3:56.38 |  17629 |  35366 
3 |  7:51.42 |  3:59.22 |  35367 |  53313 
4 | 11:50.64 |  4:51.08 |  53314 |  75146 
5 | 16:41.72 |  4:20.73 |  75147 |  94719 
6 | 21:02.70 |  4:35.53 |  94720 | 115397 
7 | 25:38.48 |  3:53.05 | 115398 | 132877 
8 | 29:31.53 |  3:37.29 | 132878 | 149181 
9 | 33:09.07 |  3:48.71 | 149182 | 166352 
10 | 36:58.03 |  4:15.36 | 166353 | 185513 
11 | 41:13.39 |  4:01.71 | 185514 | 203659 
12 | 45:15.35 |  5:24.02 | 203660 | 227961 
范围状态及错误
已选择范围
文件名 D:\钟明秋 - 水中花HQⅡ.wav
峰值电平 100.0 %
抓取速度 2.5 X
范围质量 99.9 %
复制 CRC 53ED6FC6
复制成功
没有错误发生

状态报告结尾



|——【6978】钟明秋 - 水中花 HQⅡ 限量编号首版 2021[原抓WAV+CUE]
| |-01.jpg
| |-02.jpg
| |-03.jpg
| |-04.jpg
| |-05.jpg
| |-06.jpg
| |-07.jpg
| |-08.jpg
| |-09.jpg
| |-10.jpg
| |-11.jpg
| |-12.jpg
| |-13.jpg
| |-BACK.jpg
| |-CD.jpg
| |-COVER.jpg
| |-钟明秋 - 水中花HQⅡ.cue
| |-钟明秋 - 水中花HQⅡ.log
| |-钟明秋 - 水中花HQⅡ.wav
| |-专辑曲目.txt

1# 2021-05-30 18:28

不错

新窗口打开 关闭