【6926】瑞鸣 群星 - 伶歌2 24K金碟限量首版 2020 原抓WAV+CUE

回复 星标
更多

【6926】瑞鸣 群星 - 伶歌2 24K金碟限量首版 2020 原抓WAV+CUE

曲目:

01.念奴娇.赤壁怀古
02.声声慢
03.关雎
04.二泉映月
05.松月绕
06.殿前欢.梅花
07.春江花月夜
08.风雨归舟
09.姑苏行

10.水调歌头



Exact Audio Copy V1.6 from 23. October 2020
EAC 抓取日志文件从5. 五月 2021, 21:34
群星 / 伶歌2 24K
使用驱动器  :        DVD RW  Adapter: 1  ID: 0
读取模式      : 可靠Secure
使用精确流     : 是
清空音频缓存    : 是
使用 C2 指示器 : 否
读取偏移校正:               : 6
读取 Lead-In 和 Lead-Out : 否
用静音填充抓取中丢失偏移的采样       : 是
去除首尾静音块               : 否
在CRC 计算中使用了空样本       : 是
已用接口                  : Win NT 及 2000 本地 Win32 接口
所用输出模式: : 内部 WAV 函数
样本格式    : 44.100 Hz; 64 Bit; 立体声
已抓取 CD 的 TOC
音轨 |    起始    |    长度    |  起始扇区  |  结束扇区  
--------------------------------------------
1 |  0:00.00 |  4:55.12 |      0 |  22136 
2 |  4:55.12 |  4:10.52 |  22137 |  40938 
3 |  9:05.64 |  3:08.48 |  40939 |  55086 
4 | 12:14.37 |  4:25.03 |  55087 |  74964 
5 | 16:39.40 |  3:54.37 |  74965 |  92551 
6 | 20:34.02 |  3:17.35 |  92552 | 107361 
7 | 23:51.37 |  4:21.43 | 107362 | 126979 
8 | 28:13.05 |  4:06.02 | 126980 | 145431 
9 | 32:19.07 |  4:35.30 | 145432 | 166086 
10 | 36:54.37 |  3:51.20 | 166087 | 183431 
范围状态及错误
已选择范围
文件名 D:\群星 - 伶歌2 24K.wav
峰值电平 99.9 %
抓取速度 2.8 X
范围质量 100.0 %
复制 CRC 77B20F1D
复制成功
没有错误发生
状态报告结尾
新窗口打开 关闭