【6925】瑞鸣 群星 - 伶歌 24K金碟限量首版 2020 原抓WAV+CUE

回复 星标
更多

【6925】瑞鸣 群星 - 伶歌 24K金碟限量首版 2020 原抓WAV+CUE 

曲目:

01.将进酒
02.丑末寅初
03.江河水 
04.梅花三弄 
05.悯农 
06.苏武牧羊 
07.小放牛 
08.渔舟唱晚 
09.关山月

10.满江红 


Exact Audio Copy V1.6 from 23. October 2020
EAC 抓取日志文件从6. 二月 2021, 17:51
群星 / 伶歌 24K
使用驱动器  :        DVD RW  Adapter: 1  ID: 0
读取模式      : 可靠Secure
使用精确流     : 是
清空音频缓存    : 是
使用 C2 指示器 : 否
读取偏移校正:               : 6
读取 Lead-In 和 Lead-Out : 否
用静音填充抓取中丢失偏移的采样       : 是
去除首尾静音块               : 否
在CRC 计算中使用了空样本       : 是
已用接口                  : Win NT 及 2000 本地 Win32 接口
所用输出模式: : 内部 WAV 函数
样本格式    : 44.100 Hz; 64 Bit; 立体声
已抓取 CD 的 TOC
音轨 |    起始    |    长度    |  起始扇区  |  结束扇区  
--------------------------------------------
1 |  0:00.00 |  5:06.20 |      0 |  22969 
2 |  5:06.20 |  4:37.49 |  22970 |  43793 
3 |  9:43.69 |  7:09.72 |  43794 |  76040 
4 | 16:53.66 |  5:14.02 |  76041 |  99592 
5 | 22:07.68 |  3:44.02 |  99593 | 116394 
6 | 25:51.70 |  5:27.27 | 116395 | 140946 
7 | 31:19.22 |  3:39.45 | 140947 | 157416 
8 | 34:58.67 |  5:02.51 | 157417 | 180117 
9 | 40:01.43 |  4:01.34 | 180118 | 198226 
10 | 44:03.02 |  5:49.24 | 198227 | 224425 
范围状态及错误
已选择范围
文件名 D:\群星 - 伶歌 24K.wav
峰值电平 99.9 %
抓取速度 3.8 X
范围质量 99.9 %
复制 CRC 02A18F23
复制成功
没有错误发生
状态报告结尾
新窗口打开 关闭