【6910】赵鹏 - 当你老了 24K金碟 限量编号首版 2021 [原抓WAV+CUE]

回复 已回复4 星标
更多
分类置顶

【6910】赵鹏 - 当你老了 24K金碟 限量编号首版 2021 [原抓WAV+CUE]

赵鹏《当你老了》头版限量编号24K金碟[低速原抓WAV+CUE]
01.當你老了
02.一次就好
03.默
04.時間煮雨
05.不要忘記我愛你
06.後會無期
07.明天你好
08.南山南
09.奇妙能力歌
10.有個愛你的人不容易

11.終於等到你



Exact Audio Copy V1.1 from 23. June 2015
EAC 抓取日志文件从20. 五月 2021, 18:14
赵鹏 - 当你老了24K
使用驱动器  :TEAC    CD-W54E  Adapter: 1  ID: 0
读取模式      : 可靠Secure
使用精确流     : 是
清空音频缓存    : 是
使用 C2 指示器 : 否
读取偏移校正:               : 685
读取 Lead-In 和 Lead-Out : 否
用静音填充抓取中丢失偏移的采样       : 是
去除首尾静音块               : 否
在CRC 计算中使用了空样本       : 是
已用接口                  : Win NT 及 2000 本地 Win32 接口
所用输出模式: : 内部 WAV 函数
样本格式    : 44.100 Hz; 16 Bit; 立体声
已抓取 CD 的 TOC
音轨 |    起始    |    长度    |  起始扇区  |  结束扇区  
--------------------------------------------
1 |  0:00.00 |  3:19.08 |      0 |  14932 
2 |  3:19.08 |  5:11.30 |  14933 |  38287 
3 |  8:30.38 |  4:33.50 |  38288 |  58812 
4 | 13:04.13 |  4:28.05 |  58813 |  78917 
5 | 17:32.18 |  3:49.34 |  78918 |  96126 
6 | 21:21.52 |  4:00.52 |  96127 | 114178 
7 | 25:22.29 |  3:27.66 | 114179 | 129769 
8 | 28:50.20 |  4:16.03 | 129770 | 148972 
9 | 33:06.23 |  4:08.52 | 148973 | 167624 
10 | 37:15.00 |  3:19.13 | 167625 | 182562 
11 | 40:34.13 |  3:20.13 | 182563 | 197575 
范围状态及错误
已选择范围
文件名 D:\赵鹏 - 当你老了24K.wav
峰值电平 99.9 %
抓取速度 2.5 X
范围质量 100.0 %
复制 CRC E94890CD
复制成功
没有错误发生

状态报告结尾



|——赵鹏《当你老了》头版限量编号24K金碟[低速原抓WAV+CUE]
| |-01.jpg
| |-02.jpg
| |-03.jpg
| |-04.jpg
| |-05.jpg
| |-06.jpg
| |-07.jpg
| |-08.jpg
| |-09.jpg
| |-10.jpg
| |-11.jpg
| |-12.jpg
| |-13.jpg
| |-14.jpg
| |-BACK.jpg
| |-CD.jpg
| |-CD内.jpg
| |-COVER.jpg
| |-封背1.jpg
| |-封背2.jpg
| |-封面1.jpg
| |-封面2.jpg
| |-赵鹏 - 当你老了24K.cue
| |-赵鹏 - 当你老了24K.log
| |-赵鹏 - 当你老了24K.wav
| |-专辑曲目.txt

哪里下载

3# 2021-07-16 02:12

怎么下载啊大哥

2# 2021-06-07 22:46

能下吗?

1# 2021-05-23 23:30

下载了

新窗口打开 关闭