【6769】钟人生 - 奉献 [24K金碟 限量编号首版] 2021年 原抓WAV+CUE

回复 已回复3 星标
更多
分类置顶

【6769】钟人生 - 奉献 [24K金碟 限量编号首版] 2021年 原抓WAV+CUE

内容简介

《奉献》是一张匠心独具的男声HiFi大碟,他不仅有难得一见的声音厚度,更有醇厚饱满、温暖细腻的声音呈现,每每一开声就能抓住听者的耳朵。人声近咪收录,细节一收到底,歌声更加的醇厚饱满。
“奉献”是一首歌,歌里面有友情、爱情、亲情……似乎每个人都可以找到和自己相对应的那个共鸣点。这个世界上总会有人为你,或者你为某人,甚至是某些人默默地守候着,奉献着。
“奉献”是一张真情流露,打动人心的人声专辑。从选曲、编配,录音到最后的混音合成差不多横跨了整个2020年。《奉献》专辑每一首歌,都有画面,都有一个匠心制作的音乐世界,喜怒哀乐,悲欢离合尽在其中……
奉献是一种爱的传递和表达,可以是某个人、某个群体,也可以是家国,是社会,是那些你愿意为之付出的一切一切……此刻,你打开推送,正在浏览、聆听的这张《奉献》是风林唱片又一匠心力作,愿如此醇厚饱满的歌声像寒夜中的一焰篝火,温暖耳畔,照亮时光。
曲目
01 别送我
02 炊烟
03 被遗忘的时光
04 一年又一年
05 奉献
06 一生守候
07 掌声响起
08 别哭,我蕞爱的人
09 风吹麦浪
10 恰似你的温柔
11 明月千里寄相思

12 草帽歌

Exact Audio Copy V1.1 from 23. June 2015
EAC 抓取日志文件从5. 五月 2021, 15:25
钟人生 / 奉献24K
使用驱动器  :TEAC    CD-W54E  Adapter: 1  ID: 0
读取模式      : 可靠Secure
使用精确流     : 是
清空音频缓存    : 是
使用 C2 指示器 : 否
读取偏移校正:               : 685
读取 Lead-In 和 Lead-Out : 否
用静音填充抓取中丢失偏移的采样       : 是
去除首尾静音块               : 否
在CRC 计算中使用了空样本       : 是
已用接口                  : Win NT 及 2000 本地 Win32 接口
所用输出模式: : 内部 WAV 函数
样本格式    : 44.100 Hz; 16 Bit; 立体声
已抓取 CD 的 TOC
音轨 |    起始    |    长度    |  起始扇区  |  结束扇区  
--------------------------------------------
1 |  0:00.00 |  4:05.61 |      0 |  18435 
2 |  4:05.61 |  3:44.17 |  18436 |  35252 
3 |  7:50.03 |  4:58.22 |  35253 |  57624 
4 | 12:48.25 |  4:03.22 |  57625 |  75871 
5 | 16:51.47 |  3:42.49 |  75872 |  92570 
6 | 20:34.21 |  4:58.33 |  92571 | 114953 
7 | 25:32.54 |  4:36.68 | 114954 | 135721 
8 | 30:09.47 |  3:37.59 | 135722 | 152055 
9 | 33:47.31 |  4:22.08 | 152056 | 171713 
10 | 38:09.39 |  4:52.42 | 171714 | 193655 
11 | 43:02.06 |  3:51.53 | 193656 | 211033 
12 | 46:53.59 |  5:08.01 | 211034 | 234134 
范围状态及错误
已选择范围
文件名 D:\钟人生 - 奉献24K.wav
峰值电平 100.0 %
抓取速度 2.5 X
范围质量 99.9 %
复制 CRC F2758BE7
复制成功
没有错误发生
状态报告结尾
---- CUETools DB Plugin V2.1.6
[CTDB TOCID: 9qwOGRPdUnNOoRJxWJpVccHKVtc-] found
Submit result: 9qwOGRPdUnNOoRJxWJpVccHKVtc- has been confirmed
Track | CTDB Status
1   | (2/2) Accurately ripped
2   | (2/2) Accurately ripped
3   | (2/2) Accurately ripped
4   | (2/2) Accurately ripped
5   | (2/2) Accurately ripped
6   | (2/2) Accurately ripped
7   | (2/2) Accurately ripped
8   | (2/2) Accurately ripped
9   | (2/2) Accurately ripped
10   | (2/2) Accurately ripped
11   | (2/2) Accurately ripped

12   | (2/2) Accurately ripped


|——【6769】钟人生 - 奉献 [24K金碟 限量编号首版] 2021年 原抓WAV+CUE
| |-Artwork
| | |-封面2.jpg
| | |-封面1.jpg
| | |-封背2.jpg
| | |-封背1.jpg
| | |-COVER.jpg
| | |-BACK.jpg
| | |-11.jpg
| | |-10.jpg
| | |-09.jpg
| | |-08.jpg
| | |-07.jpg
| | |-06.jpg
| | |-05.jpg
| | |-04.jpg
| | |-03.jpg
| | |-02.jpg
| | |-01.jpg
| | |-CD内.jpg
| | |-CD.jpg
| |-钟人生 - 奉献24K.wav
| |-钟人生 - 奉献24K.log
| |-钟人生 - 奉献24K.cue

谢谢分享

2# 2021-05-14 19:27

谢谢分享

1# 2021-05-14 11:37

谢谢分享

新窗口打开 关闭