【6414】瑞鸣音乐 群星-黄金时代 24K金碟 限量编号首版2020年 [原抓WAV+CUE]

回复 已回复1 星标
更多
分类置顶

【6414】瑞鸣音乐 群星-黄金时代 24K金碟 限量编号首版2020年  [原抓WAV+CUE]

简介:

2020瑞鸣全新出发,评选广大发烧友最喜爱的专辑制作24K限量收藏金碟,让广大听众有更好的视听体验,本次瑞鸣音乐联合高班音响为大家带来的是一份尊贵而神秘的礼物——《黄金时代》!
从关栋天与毛阿敏深情对唱的《钗头凤》,到精忠报国的岳飞名篇《满江红》,从俏皮精致的《剑阁闻铃》到意境悠远的《牧歌》,从恬淡雅致的《平沙落雁》到大气恢弘的《乱》……可以说《黄金时代》真正辑选了瑞鸣音乐“黄金时代”的代表作,将这些音乐性和音响性高度统一的“黄金曲目”一网打尽,通过不同体裁和表现形式进行了充分的表达,无论您是民族音乐爱好者,还是资深音响发烧友,无论是单纯的赏乐还是用来试机,这张专辑可谓是一步到位了。
作为国内知名的高端胆机品牌,高班此次与瑞鸣音乐合作的这张《黄金时代》,眼光独到,选曲别致,以自家的主打机型LS-35合并机作为封面,也寄托着厂方独特的意味和深意。
24KGold Disc 特点:BLR母盘制作技术,BSCD高分子高透聚碳酸酯,99.99%纯金反射层。CD生产线的在线反射层检测控制,反复测试确定的纯金反射层厚度;特殊的CD注塑程序,提高CD的高复制率,检查报告参数优于普通CD。
曲目
01. 钗头凤-选自专辑《短歌行》
02. 乱-选自专辑《三国》
03. 桃李梅 三放参姑娘-选自专辑《粉墨是梦2》
04. 丑末寅初-选自专辑《伶歌》
05. 剑阁闻铃-选自专辑《小曲儿》
06. 樱花-选自专辑《荒城之月》
07. 花为媒-选自专辑《粉墨是梦1》
08. 牧歌-选自专辑《玫瑰三愿》
09. 满江红-选自专辑《伶歌》
10. 平沙落雁-选自专辑《天人合一》
11. 花木兰-选自专辑《粉墨是梦1》

12. 帝女花-选自专辑《粉墨是梦2》



| |-Artwork
| | |-COVER.jpg
| | |-CD.jpg
| | |-BACK.jpg
| | |-15.jpg
| | |-14.jpg
| | |-13.jpg
| | |-12.jpg
| | |-11.jpg
| | |-10.jpg
| | |-09.jpg
| | |-08.jpg
| | |-07.jpg
| | |-06.jpg
| | |-05.jpg
| | |-04.jpg
| | |-03.jpg
| | |-02.jpg
| | |-01.jpg
| | |-CD内.jpg
| |-瑞鸣音乐 - 黄金时代.wav
| |-瑞鸣音乐 - 黄金时代.log
| |-瑞鸣音乐 - 黄金时代.cue

| |-专辑曲目.txt



Exact Audio Copy V1.1 from 23. June 2015
EAC 抓取日志文件从23. 三月 2021, 15:52
瑞鸣音乐 / 黄金时代
使用驱动器  :TEAC    CD-W54E  Adapter: 1  ID: 0
读取模式      : 可靠Secure
使用精确流     : 是
清空音频缓存    : 是
使用 C2 指示器 : 否
读取偏移校正:               : 685
读取 Lead-In 和 Lead-Out : 否
用静音填充抓取中丢失偏移的采样       : 是
去除首尾静音块               : 否
在CRC 计算中使用了空样本       : 是
已用接口                  : Win NT 及 2000 本地 Win32 接口
所用输出模式: : 内部 WAV 函数
样本格式    : 44.100 Hz; 16 Bit; 立体声
已抓取 CD 的 TOC
音轨 |    起始    |    长度    |  起始扇区  |  结束扇区  
--------------------------------------------
1 |  0:00.00 |  5:59.13 |      0 |  26937 
2 |  5:59.13 |  2:12.42 |  26938 |  36879 
3 |  8:11.55 |  4:55.09 |  36880 |  59013 
4 | 13:06.64 |  4:39.34 |  59014 |  79972 
5 | 17:46.23 |  5:26.41 |  79973 | 104463 
6 | 23:12.64 |  6:53.54 | 104464 | 135492 
7 | 30:06.43 |  4:46.43 | 135493 | 156985 
8 | 34:53.11 |  5:07.55 | 156986 | 180065 
9 | 40:00.66 |  5:55.55 | 180066 | 206745 
10 | 45:56.46 |  6:33.09 | 206746 | 236229 
11 | 52:29.55 |  4:38.21 | 236230 | 257100 
12 | 57:08.01 |  5:05.13 | 257101 | 279988 
范围状态及错误
已选择范围
文件名 D:\瑞鸣音乐 - 黄金时代.wav
峰值电平 100.0 %
抓取速度 2.4 X
范围质量 99.9 %
复制 CRC 4CFC572B
复制成功
没有错误发生
状态报告结尾
---- CUETools DB Plugin V2.1.6
[CTDB TOCID: axO4aj6teP8uGUXki6w_0BJqneE-] found
Submit result: axO4aj6teP8uGUXki6w_0BJqneE- has been confirmed
Track | CTDB Status
1   | (1/1) Accurately ripped
2   | (1/1) Accurately ripped
3   | (1/1) Accurately ripped
4   | (1/1) Accurately ripped
5   | (1/1) Accurately ripped
6   | (1/1) Accurately ripped
7   | (1/1) Accurately ripped
8   | (1/1) Accurately ripped
9   | (1/1) Accurately ripped
10   | (1/1) Accurately ripped
11   | (1/1) Accurately ripped
12   | (1/1) Accurately ripped

谢谢楼主分享

新窗口打开 关闭